Rodzina Addamsów 1-3 – The Addams Family I-III *1991-1998* [MiXED.RiPS] [Lektor i Dubbing PL] (seed(ów) 0 — leecher(ów) 0)

RODZINA ADDAMSÓW

INFO:

=========================

Polski tytuł: Rodzina Addamsów

Oryginalny tytuł: The Addams Family

Produkcja: USA

How To Watch ‘The Bachelor’ Finale 2015 & ‘After The Final Rose’ Special Live Online


Watch The Bachelor Online

Happy #NationalDrinkWineDay! Open up that special bottle. #TheBachelor

[xXx] NubileFilms – Missed Your Loving – Janice Griffith [720pLQ]

Jazyk: Nemluví se

Titulky: Ne

Rok vydání: 2014

Délka: 28:32

Obal:

Žánr: XXX

Screen:

Format: MPEG-4

Format profile: Base Media

Codec ID: isom

File size: 821 MiB

Duration: 28mn 32s

Overall bit rate mode: Variable

Overall bit rate: 4 023 Kbps

Writing application: Lavf55.37.101

Video

ID: 1

Format: AVC

Format/Info: Advanced Video Codec

Format profile: [email protected]

Format settings, CABAC: Yes

Format settings, ReFrames: 4 frames

Codec ID: avc1

Codec ID/Info: Advanced Video Coding

Duration: 28mn 32s

Bit rate: 3 910 Kbps

Width: 1 280 pixels

Height: 720 pixels

Display aspect ratio: 16:9

Frame rate mode: Constant

Frame rate: 23.976 fps

Color space: YUV

Chroma subsampling: 4:2:0

Bit depth: 8 bits

Scan type: Progressive

Bits/(Pixel*Frame): 0.177

Stream size: 798 MiB (97%)

Writing library: x264 core 142

Encoding settings: cabac=1 / ref=2 / deblock=1:-1:-1 / analyse=0×1:0×111 / me=umh / subme=8 / psy=1 / psy_rd=1.00:0.15 / mixed_ref=1 / me_range=16 / chroma_me=1 / trellis=1 / 8x8dct=0 / cqm=0 / deadzone=21,11 / fast_pskip=1 / chroma_qp_offset=-3 / threads=12 / lookahead_threads=2 / sliced_threads=0 / nr=0 / decimate=1 / interlaced=0 / bluray_compat=0 / constrained_intra=0 / bframes=3 / b_pyramid=2 / b_adapt=2 / b_bias=0 / direct=3 / weightb=1 / open_gop=0 / weightp=0 / keyint=250 / keyint_min=23 / scenecut=40 / intra_refresh=0 / rc_lookahead=50 / rc=crf / mbtree=1 / crf=17.0 / qcomp=0.60 / qpmin=0 / qpmax=69 / qpstep=4 / ip_ratio=1.40 / aq=1:1.00

Language: English

Audio

ID: 2

Format: AAC

Format/Info: Advanced Audio Codec

Format profile: LC

Codec ID: 40

Duration: 28mn 32s

Duration_LastFrame: -19ms

Bit rate mode: Variable

Bit rate: 106 Kbps

Maximum bit rate: 196 Kbps

Channel(s): 2 channels

Channel positions: Front: L R

Sampling rate: 44.1 KHz

Compression mode: Lossy

Delay relative to video: 83ms

Stream size: 21.7 MiB (3%)

Language: English

Nové, úžasné video s here?kou Janice Griffith.Užíjte si torrent a za seed a p?ípadné bodíky noooc d?kuji:).

3D SEXVILLA 2.0 EVERLUST INTERACTIVE PC SEX GAMES VIRTUAL SEX IN 3D AND HDTV

Category: Games
Seeds: 0
Leechers: 0
Size: 16.8 MB

More info at TorrentFunk.com